#TITLE:Vanilla Salt;
#SUBTITLE:Toradora!;
#ARTIST:堀江由衣;
#TITLETRANSLIT:;
#SUBTITLETRANSLIT:;
#ARTISTTRANSLIT:Yui Horie;
#CREDIT:;
#BANNER:Vanilla Salt-Banner.png;
#BACKGROUND:Vanilla Salt-Bg(1).jpg;
#LYRICSPATH:;
#CDTITLE:;
#MUSIC:Vanilla Salt.mp3;
#OFFSET:-0.840;
#SAMPLESTART:55.920;
#SAMPLELENGTH:12.000;
#SELECTABLE:YES;
#BPMS:0.000=140.020;
#STOPS:;
#BGCHANGES:15.000=Vanilla Salt.avi=1.000=0=0=0,
99999=-nosongbg-=1.000=0=0=0 // don't automatically add -songbackground-
;
// cache tags:
#FIRSTBEAT:0.250;
#LASTBEAT:216.250;
#SONGFILENAME:songs/Pack anime 1/Vanilla Salt/Vanilla Salt.sm;
#HASMUSIC:1;
#HASBANNER:1;
#MUSICLENGTH:96.606;
// end cache tags

//---------------dance-single - ----------------
#NOTES:
     dance-single:
     :
     Medium:
     8:
     0.506,0.476,0.549,0.062,0.838,282.000,53.000,6.000,0.000,2.000:
0000
1000
0001
0000
0000
0000
0000
0110
0000
0000
1000
0000
0000
0000
0000
0000
,
0110
0000
0000
0001
0000
0000
0000
0110
0000
1000
0000
0000
0000
0000
0000
0000
,
0001
0000
0000
0000
0000
0110
0000
0000
0000
1000
0000
0000
0000
0000
0000
0001
,
0000
0000
0000
0011
0000
0000
0000
0110
0000
1000
0000
0000
0000
0000
0000
0000
,
0000
0011
0000
0000
0000
0110
0000
0000
0000
1000
0000
0000
0000
0000
0000
0011
,
0000
0000
0000
0110
0000
0000
1000
0000
0000
0110
0000
0000
0000
0000
0000
0000
,
0001
0000
0000
0000
0010
0000
0000
0000
0000
0100
0000
0000
0000
0000
0000
0000
,
0000
1010
0000
0000
0000
0000
0000
0000
0000
0101
0000
0000
0000
0010
0000
0000
,
0000
0010
0000
0001
0000
0000
0011
0000
0000
0000
0000
0011
0000
0000
0110
0000
,
0000
1010
0000
0000
0000
0000
0100
0000
0000
0010
0000
0000
0000
1001
0000
0000
,
0000
0200
0000
0300
0000
0010
0000
0000
0000
0200
0000
0000
0000
1000
0000
0000
,
0000
0010
0000
0300
0000
0001
0000
0000
0000
0000
0101
0000
0000
0000
0010
0000
,
0000
1012
0000
0100
0000
0110
0000
1003
,
0000
0000
0100
0000
0000
0000
1000
0000
0000
0000
1000
0000
0001
0100
0000
0020
,
0000
0030
0000
1000
0000
0000
0000
0010
0000
0100
0000
0000
0000
0000
0001
0000
,
0000
0010
0000
0000
0000
1000
0000
0000
0000
0000
1010
0000
0100
0000
0001
0000
,
0000
0000
0010
0000
0000
1000
0000
0000
0010
0000
0000
0100
0000
1000
0000
0001
,
0000
0000
0010
0000
0100
0000
0000
1000
0000
0010
0100
0000
0000
0000
1000
0000
,
0010
0000
0000
0000
1000
0000
0000
0000
0100
0000
0010
0001
0000
0000
0100
0000
,
0000
1000
0000
0010
0000
1000
0000
0100
0000
0010
0000
0001
0000
0100
0000
1000
,
0010
0000
0000
0000
1000
0000
0010
0000
0100
0000
0001
0000
1000
0100
0000
0010
,
0000
0000
0000
1000
0000
0010
0000
0100
0000
0001
0000
1000
0000
0010
0000
1000
,
0000
0100
0000
0000
0010
1000
0000
0000
0100
0000
0010
0000
0001
0000
1000
0000
,
0010
0000
0000
0100
0000
0010
0000
0100
0001
0000
1000
0000
0010
0000
0011
0000
,
1000
0000
0000
0000
0100
0010
0000
1000
0000
0010
0000
0100
0000
0001
0000
1000
,
0000
0000
0000
1010
0000
0000
0000
0110
0000
0000
0001
0000
0000
0000
0000
0110
,
0000
0000
0000
1000
0000
0000
0000
1010
0000
0000
0000
0110
0000
0000
0000
0101
,
0000
0000
0000
0000
0011
0000
0000
0000
0000
1010
0000
0000
0000
0110
0000
0000
,
0000
0000
1000
0000
0010
0000
1000
0000
0000
0001
0000
0100
0000
0010
0000
0100
,
0010
0000
0000
0100
0000
0000
0000
1000
0000
0000
0000
1000
0000
0000
0010
0000
,
0000
0000
1000
0000
0001
0000
0000
1000
0000
0000
0000
0001
1000
0100
0000
0010
,
0000
1000
0000
0000
0000
0000
1010
0000
0000
0000
0000
0101
0000
0000
0101
0000
,
0000
0010
1000
0000
0000
1000
0000
0000
0000
0100
0000
0000
0000
0010
0000
0001
,
0000
1000
0000
0000
0010
0000
0000
0100
0000
1010
0000
0000
0000
0000
1000
0000
,
0000
0000
0001
0000
0000
0000
0100
0000
0000
0010
0000
0000
0000
1000
0000
0100
,
0000
0000
0000
0010
0000
0000
0000
1000
0000
0100
0000
0000
0010
0000
0000
0000
,
0000
1000
0000
0000
0010
0000
0001
0000
0000
0000
0100
0000
0000
0010
0000
0000
,
1000
0000
0000
0001
0000
0000
0000
0100
0000
0010
0000
0000
0000
1000
0000
0000
,
0000
0000
1010
0000
0000
0000
0101
0000
0000
0110
0000
1010
0000
0000
0000
0000
,
0110
0000
0000
0001
0000
0000
1000
0000
0000
0010
0000
0100
0000
0001
0000
0000
,
0000
1000
0000
0000
0010
0000
0000
0000
0000
0100
0000
0000
0000
0001
0000
0000
,
0010
0000
0000
1000
0000
0000
0000
0110
0000
0101
0000
0000
0000
0000
0000
0000
,
0000
1000
0000
0000
0000
0010
0000
0000
0000
0001
0000
0000
0000
0100
0000
0010
,
0000
0000
1000
0000
0010
0000
0000
0100
0000
0001
0000
0000
0000
0010
0000
0000
,
0000
0100
0000
1000
0001
0000
0100
0000
0010
0000
0000
0100
0000
0010
0000
1000
,
0000
0001
0000
1000
0000
0010
0000
0100
0000
0000
0000
0100
0000
0000
1000
0000
,
0100
1000
0000
0000
0000
0100
1000
0000
0100
0000
1000
0000
0100
0000
1000
0100
,
0000
1000
0000
0000
0010
0000
0000
0000
0001
0100
0000
0000
0000
0110
0000
0000
,
0000
0000
1010
0000
0000
0000
1000
0000
0000
0000
0000
0110
0000
0000
1001
0000
,
0000
0000
0101
0000
0000
0000
0100
0010
0000
0000
1000
0000
0000
0000
0010
0000
,
1000
0001
0100
0010
1000
0010
0100
0010
,
0100
0000
0001
0000
0100
0000
0010
0000
0000
1000
0000
0000
0000
1010
0000
0000
,
0000
0000
0101
0000
0000
0010
0100
0000
0000
0000
1000
0000
0000
0000
1010
0000
,
0000
0100
0000
0000
0000
0000
0101
0000
0000
0010
0000
0100
0000
1000
0000
0000
,
0202
0303
0000
0000
0000
0000
0000
0000
0000
0000
0000
0000
0000
0000
0000
0000
;
